Page Index Toggle Pages: 1 [2]  Send Topic | Print
Very Hot Topic (More than 25 Replies) No Audio in Scene Files (HandySaw DS 4.1) (Read 13980 times)
oscar
New Member
*
Offline


I Love YaBB 2!

Posts: 9
Joined: 12.12.2016
Re: No Audio in Scene Files (HandySaw DS 4.1)
Reply #10 - 12.12.2016 at 11:56:10
Print Post  
Here is it.
  

HandySawDebug_12_12_2016_12_03_10.zip ( 137 KB | 187 Downloads )
Back to top
 
IP Logged
 
Davis
Forum Administrator
*****
Offline


Admin

Posts: 65
Location: Ukraine
Joined: 08.11.2005
Gender: Male
Re: No Audio in Scene Files (HandySaw DS 4.1)
Reply #9 - 12.12.2016 at 11:29:54
Print Post  
Please send me info that I asked, especially
Quote:
- Create and send me debug log.
  

Dmitry Sinitsyn,
Davis Software
Back to top
WWW  
IP Logged
 
oscar
New Member
*
Offline


I Love YaBB 2!

Posts: 9
Joined: 12.12.2016
Re: No Audio in Scene Files (HandySaw DS 4.1)
Reply #8 - 12.12.2016 at 11:25:52
Print Post  
Hello Davis,

The problem is that neither Windows Media Player nor VLC can play the sound of the splitted files.
But my smart TV can play the sound of these files.

Tell me what steps information to add that is not in the attached logg file.

This is the format file information:
Format                                   : MPEG-PS
File size                                : 16.8 MiB
Duration                                 : 55 s 709 ms
Overall bit rate mode                    : Variable
Overall bit rate                         : 2 527 kb/s

Video
ID                                       : 224 (0xE0)
Format                                   : MPEG Video
Format version                           : Version 2
Format profile                           : Main@Main
Format settings, BVOP                    : No
Format settings, Matrix                  : Custom
Format settings, GOP                     : Variable
Format settings, picture structure       : Frame
Duration                                 : 55 s 709 ms
Bit rate mode                            : Variable
Bit rate                                 : 2 221 kb/s
Maximum bit rate                         : 9 400 kb/s
Width                                    : 720 pixels
Height                                   : 576 pixels
Display aspect ratio                     : 4:3
Frame rate                               : 25.000 FPS
Standard                                 : PAL
Color space                              : YUV
Chroma subsampling                       : 4:2:0
Bit depth                                : 8 bits
Scan type                                : Interlaced
Scan order                               : Top Field First
Compression mode                         : Lossy
Bits/(Pixel*Frame)                       : 0.214
Time code of first frame                 : 00:01:10:02
Time code source                         : Group of pictures header
GOP, Open/Closed                         : Open
Stream size                              : 14.8 MiB (88%)
Color primaries                          : BT.601 PAL
Transfer characteristics                 : BT.470 System B, BT.470 System G
Matrix coefficients                      : BT.601

Audio
ID                                       : 189 (0xBD)-128 (0x80)
Format                                   : AC-3
Format/Info                              : Audio Coding 3
Mode extension                           : CM (complete main)
Format settings, Endianness              : Big
Muxing mode                              : DVD-Video
Duration                                 : 55 s 709 ms
Bit rate mode                            : Constant
Bit rate                                 : 256 kb/s
Channel(s)                               : 2 channels
Channel positions                        : Front: L R
Sampling rate                            : 48.0 kHz
Frame rate                               : 31.250 FPS (1536 spf)
Bit depth                                : 16 bits
Compression mode                         : Lossy
Delay relative to video                  : -320 ms
Stream size                              : 1.70 MiB (10%)

Thanks a lot

Oscar
  
Back to top
 
IP Logged
 
Davis
Forum Administrator
*****
Offline


Admin

Posts: 65
Location: Ukraine
Joined: 08.11.2005
Gender: Male
Re: No Audio in Scene Files (HandySaw DS 4.1)
Reply #7 - 12.12.2016 at 09:48:29
Print Post  
oscar wrote on 12.12.2016 at 09:40:33:
The same happens to me

Something strange happens with audio codecs

Hello,

Please give me this info:
- Describe problem and steps to reproduce it
- What format of video file do you use?
- Create and send me debug log.
For this:
- open Preferences, Logging tab and turn on "Store debug info in "HandySaw Debug.log". Restart HandySaw
- then run processing again. After problem occurs close HandySaw, find debug log file(it will be in "C:\Users\USERNAME\Documents\Davis Software\HandySaw DS" folder) and send me.
- turn off writing of debug log
- it can be very big so compress it for example by 7zip

P.S. It is better to move to email
  

Dmitry Sinitsyn,
Davis Software
Back to top
WWW  
IP Logged
 
oscar
New Member
*
Offline


I Love YaBB 2!

Posts: 9
Joined: 12.12.2016
Re: No Audio in Scene Files (HandySaw DS 4.1)
Reply #6 - 12.12.2016 at 09:40:33
Print Post  
The same happens to me


If this helps, I add the following information:
VLC reports diferent audio codecs for thee Original file and  for Clipped file.  You can see it in attached file.


Something strange happens with audio codecs
  

audio.jpg ( 146 KB | 183 Downloads )
audio.jpg
Back to top
 
IP Logged
 
Angelica Vire
New Member
*
Offline


I Love YaBB 2!

Posts: 2
Joined: 24.02.2011
Re: No Audio in Scene Files (HandySaw DS 4.1)
Reply #5 - 24.02.2011 at 01:53:11
Print Post  
You have to download and install ffmpeg software

« Last Edit: 02.03.2011 at 10:05:33 by Davis »  
Back to top
 
IP Logged
 
Davis
Forum Administrator
*****
Offline


Admin

Posts: 65
Location: Ukraine
Joined: 08.11.2005
Gender: Male
Re: No Audio in Scene Files (HandySaw DS 4.1)
Reply #4 - 25.02.2008 at 03:36:26
Print Post  
Did you set up plug-in's variables?
Did you install ffmpeg software?
Did you read help?

You have to download and install ffmpeg software. You may get it here http://arrozcru.no-ip.org/ffmpeg_builds/
Then run HandySaw DS, press Preferences button, go to Plug-uns tab and setup ffmpeg.Cutter.js plug-in.
After this you'll ready to use plug-in.
  

Dmitry Sinitsyn,
Davis Software
Back to top
WWW  
IP Logged
 
markgill
New Member
*
Offline


I Love YaBB 2!

Posts: 2
Joined: 21.02.2008
Re: No Audio in Scene Files (HandySaw DS 4.1)
Reply #3 - 23.02.2008 at 03:31:26
Print Post  
Thanks for the feedback.

Switching to ffmpeg.Cutter.js generates the following error once the passes are complete and the file saving begins:

Code
Select All
Error occured during script evaluating

File Name: c:\Program Files\Davis Software\HandySaw DS\Plug-ins\Output\ffmpeg.Cutter.js

Error in script:
Source:
Description:
Line: 65
Column: 8
Text: 



Pressing OK takes me back to the HandySaw interface with the first scene filesize being 5,160 KB and in an unusable format. Source file is about 12.5 GB.

Any other ideas?
  
Back to top
 
IP Logged
 
Davis
Forum Administrator
*****
Offline


Admin

Posts: 65
Location: Ukraine
Joined: 08.11.2005
Gender: Male
Re: No Audio in Scene Files (HandySaw DS 4.1)
Reply #2 - 22.02.2008 at 05:08:25
Print Post  
Looks like there is bug in DirectShow...
I have several DV 1 files . Some of them splitted fine, other - without audio.
There are no bugs in HandySaw.

So I suggest to use "ffmpeg.Cutter.js" plug-in to split source file of any format without recompression
  

Dmitry Sinitsyn,
Davis Software
Back to top
WWW  
IP Logged
 
Davis
Forum Administrator
*****
Offline


Admin

Posts: 65
Location: Ukraine
Joined: 08.11.2005
Gender: Male
Re: No Audio in Scene Files (HandySaw DS 4.1)
Reply #1 - 22.02.2008 at 04:33:59
Print Post  
Thank you for info.
I've checked... with some DV Type 1 sources happens such problem - silent audio.
I'm investigating now.

As yet try "ffmpeg.Cutter.js" or "VDub Direct Copy.js" plug-ins instead of "Split" result type
  

Dmitry Sinitsyn,
Davis Software
Back to top
WWW  
IP Logged
 
markgill
New Member
*
Offline


I Love YaBB 2!

Posts: 2
Joined: 21.02.2008
No Audio in Scene Files (HandySaw DS 4.1)
21.02.2008 at 12:53:28
Print Post  
Hello,

Im running a DEMO copy of HandySaw DS 4.1 on a Vista machine. I have captured a 60 minute DV tape to a single AVI file via the Vista DV capture utility. The single file has video and audio intact in a single file.

I have configured HandySaw to create a subfolder for the scene files and to use the 'Split' Result Type. I am also asking HS to append a datecode to the filename of the split scene files in the sub directory.

When the process is completed the files are all there (the first 15 anyway, due to the DEMO) but all of the files have lost audio. Video still looks good.

Any help to get my audio back?

Thanks,

Mark
  
Back to top
 
IP Logged
 
Page Index Toggle Pages: 1 [2] 
Send Topic | Print